Skip to main content

Dub Apocalypse Live at Chianti Jazz Lounge on 2012-12-03




Dub Apocalypse
Chianti Tuscan Restaurant And Lounge
Beverly, Massachusetts
12/3/2012

Source: Schoeps CCM4V'S(din)>Lunatec V2>Benchmark AD2K>
Sound Devices 722 (24/48)
FOB/DFC/KFC/ZFC/AARP Stage Lip, 4 1/2' High
DSP: Sound Devices 722>Sound Forge 9.0>CD Wave>flac(16)
Recorded By: Z-Man
Seeded By: Z-Man

Disc I 1st Set

01 ?
02 ?
03 ?
04 ?
05 ?

Disc II 2nd Set

01 *? >
02 *?
03 *?
04 *?
05 *?

* With Ben Zecker On Grand Piano

Jeff Lockhart - Guitar
Timo Shanko - Bass
Mike Tucker - Saxophone
Tom Arey - Drums


Collection DubApocalypse
Band/Artist Dub Apocalypse
Date December 3, 2012
Venue Chianti Jazz Lounge
Location Beverly, MA

Source Schoeps CCM4V'S(din)>Lunatec V2>Benchmark AD2K> Sound Devices 722 (24/48)
Lineage Sound Devices 722>Sound Forge 9.0>CD Wave>flac(16)
Taped by Z-Man
Transferred by Z-Man


Notes

* With Ben Zecker On Grand Piano

Jeff Lockhart - Guitar
Timo Shanko - Bass
Mike Tucker - Saxophone
Tom Arey - Drums

Flac Fingerprint

dub2012-12-03d01t01.flac:321611d6452f0a657c11fa3e7520298b
dub2012-12-03d01t02.flac:c8ff0c13214c4575060f0079ab5e1210
dub2012-12-03d01t03.flac:1d50583ef5e946e4bd8edf872b93de5d
dub2012-12-03d01t04.flac:ec9e6b51424358230a581a4b38797c38
dub2012-12-03d01t05.flac:92f24722559ce560ddee9a9048889ed3
dub2012-12-03d02t01.flac:53524498431eba39d979213eeb35c985
dub2012-12-03d02t02.flac:f23666486c732be559d0c3508c64249f
dub2012-12-03d02t03.flac:547ac4293089dec5262e09152c96f456
dub2012-12-03d02t04.flac:3f61a956113cb65f7395dee07405dcd8
dub2012-12-03d02t05.flac:af794742ca440ef7c657a6a60b8d8618

Shntool

length expanded size cdr WAVE problems fmt ratio filename
12:00.35 127090364 B --- -- ---xx flac 0.5048 dub2012-12-03d01t01.flac
14:33.02 154001948 B --- -- ---xx flac 0.5048 dub2012-12-03d01t02.flac
11:48.59 125030012 B --- -- ---xx flac 0.5093 dub2012-12-03d01t03.flac
12:36.21 133407836 B --- -- ---xx flac 0.5214 dub2012-12-03d01t04.flac
15:25.60 163311164 B --- -- ---xx flac 0.5216 dub2012-12-03d01t05.flac
6:52.52 72799148 B --- -- ---xx flac 0.5312 dub2012-12-03d02t01.flac
6:41.45 70842284 B --- -- ---xx flac 0.5383 dub2012-12-03d02t02.flac
16:01.29 169588652 B --- -- ---xx flac 0.5228 dub2012-12-03d02t03.flac
13:51.65 146741324 B --- -- ---xx flac 0.5209 dub2012-12-03d02t04.flac
7:02.51 74560796 B --- -- ---xx flac 0.5140 dub2012-12-03d02t05.flac
116:54.44 1237373528 B 0.5177 (10 files)

Reviews

There are no reviews yet. Be the first one to write a review.
PEOPLE ALSO FOUND
Dub Apocalypse
by Dub Apocalypse
182
0
0
Source: source1: akg 481 > V2 > R-44 > WAV (24/96k), source2: sbd > R-44 > WAV (24/96k)
Dub Apocalypse
by Dub Apocalypse
167
0
0
Source: akg c480b/ck62 > oade acm marantz 671 > WAV (24/48k)
Dub Apocalypse
by Dub Apocalypse
102
0
0
Source: source1: akg 481 (on stage) > Lunatec V2 > Edirol R-44 > WAV (24/48k), source2: akg 482 (3' split) > Lunatec V2 > Edirol R-44 > WAV (24/48k), source3: sbd > Edirol R-44 > WAV (24/48k)
Dub Apocalypse
by Dub Apocalypse
122
0
0
Source: akg 481 > Lunatec V2 > Edirol R-44 > WAV (24/96k)
Dub Apocalypse
137
0
0
Source: akg 481 (on stage) > Lunatec V2 > Edirol R4 > WAV (24/48k)
Dub Apocalypse
by Dub Apocalypse
74
0
0
Source: akg 481 > Lunatec V2 > Edirol R-44 > WAV (24/48k)
Dub Apocalypse
185
0
0
Source: source1: akg 481 (on stage) > V2 > R4 > WAV (24/96k), source2: sbd > R-44 > WAV (24/48k)
Dub Apocalypse
by Dub Apocalypse
90
0
0
Source: akg 481 > Lunatec V2 > Edirol R-44 > WAV (24/48k)
Dub Apocalypse
by Dub Apocalypse
94
0
0
Source: akg 481 > V2 > r-44 > WAV (24/96k)
Dub Apocalypse
by Dub Apocalypse
56
0
0
Source: source1: akg 481 (stagelip) > Lunatec V2 > Edirol R-44 > WAV (24/96k), source2: sbd > Edirol R-44 > WAV (24/96k)